© 2016 Ratan X Productions |  Current Time:  |  Site Updated: Tue. 13 September 2016  |  Eh?: Several national journals

seasondrones (Recorded 7 February — 14 February 2014)

Our thirteenth album is four "mini-drone tracks" based on the four seasons (that is, the four seasons of weather, not the musical piece by Vivaldi. I'm not that arrogant or foolish enough to think I'm worthy of that). Each track is 19:53.

This is the work that I made reference to when I released Forestdrone.

 

seasondrones
back cover
 

Winterdrone (19:52)
Springdrone (19:52)
Summerdrone (19:52) [explicit]
Autumndrone (19:52)










total time: 79:28

 

[flac]
[flac]
[flac]
[flac]

Released: 3 March 2014
catalogue number: OSC016RCB013LP79:28
Click to see album artwork

samples

Winterdrone — contains samples of Fox screaming in winter forest in the night by Michieldb, walkinginsnow by Spandau, suburban night 2am 121228_00 by klankbeeld, and Over you CLEAN by scotteguff.

Springdrone — contains samples of factorytalk1 by Charliefarley, eyes_whisp by Corsica_S, suburban night 2am 121228_00 by klankbeeld, 20130426_hueznar by dobroide, wind in trees by inchadney, rain (light) by fresco, JamesportWindChimes by acclivity, and French Rap by janis71.

Summerdrone — contains samples of AC Unit by zolopher, Residential street distant traffic wet road by mzui, air conditioner by BeatsByCasper, summer night by eric5335, rain_on_a_roof by joedeshon, thunder clap by Shades, lawn mower by bsumusictech, I take a stab at myself by graveflowers and all nite long by munki

Autumndrone — contains samples of St. Peterburg's Taxi and California Radio Skip (downloaded from usenet, origin unknown), untouched by Corsica_S, girlprettyvoicehumming by nayruslove, walk_autumn_leaves by Zabuhailo and Within your soul by Holly.

 

Seasondrones dynamic range stats

----------------------------------------------------------------------------------------------
 DR		Peak		RMS		Filename
----------------------------------------------------------------------------------------------

 DR15		-6.01 dB 	-24.16 dB 	winterdrone.wav
 DR15		-4.13 dB 	-23.77 dB 	springdrone.wav
 DR13		-0.80 dB 	-19.10 dB 	summerdrone.wav
 DR12		-1.77 dB 	-17.40 dB 	autumndrone.wav
----------------------------------------------------------------------------------------------

 Number of files:	4
 Official DR value:	DR14

==============================================================================================

 

Legal crap

We are releasing these recordings under a Creative Commons Attribution-ShareAlike license. You're free to post these files on P2P, usenet, your homepage, etc. All that I ask is that you credit me  (with the name Rural Citizens Band), and leave the ID3 tags as is. Please do not change them in any way, as this is a major way I credit myself for the work.

Also, if you use these songs for animations, or whatever, please email me, I'd love to see your work! Feel free to send any other comments, suggestions, etc!

 

Creative Commons License
seasondrones by Rural Citizens Band is licensed under a Creative Commons Attribution-ShareAlike 3.0 Unported License.

 

back to the top
back to the index
send comments