© 2016 Ratan X Productions |  Current Time:  |  Site Updated: Tue. 13 September 2016  |  Eh?: Explosive rubbing alcohol

Era Notte (recordings from Jan 2010 – Aug 2011)

When you run out of song titles, it's usually best to start naming your songs in a foreign language. Italian is a beautiful language and I've taken some Italian courses in the past.

Era Notte means "it was night" and comes from a Bible verse. After Judas betrays Jesus we are told "and it was night" which literally means this happened in the evening, though I also took it mean "now it's dark."

I have no idea where the album cover comes from. It was one of those images that gets passed around the paranormal and conspiracy boards of 4chan and other similar sites. I added a hidden image of Dear Leader which is actually easier to see in the thumbnail than the full sized image. The all seeing eye sees everything, and if you think that's conspiracy theory nonsense you're not paying attention.

 

Era Notte
back cover
 

invocazione (2:10) [explicit]
fessa (4:48)
casolare (2:13)
sorellina (5:47) [explicit]
foresta (4:14)
ipnagogica (3:39)
costellazione (3:40)
immolazione (10:43)
ritardato (2:55) [explicit]
abisso (4:28)
camere (6:21)
pezzente (1:56)
benedizione (3:46) [explicit]
total: 56:33 

 

[mp3]
[mp3]
[mp3]
[mp3]
[mp3]
[mp3]
[mp3]
[mp3]
[mp3]
[mp3]
[mp3]
[mp3]
[mp3]

 

[flac]
[flac]
[flac]
[flac]
[flac]
[flac]
[flac]
[flac]
[flac]
[flac]
[flac]
[flac]
[flac]

Released: August 30th, 2011
catalogue number: OSC005RCB005LP56:33
Look at the album artwork
Subscribe to podcast for easy mp3 downloads

samples

Coming soon. Actually, I don't think I used that many samples, other than the UFO Preacher, Chris Hansen, Mel Gibson and Allen Ginsberg. What a motley crew of insanity! [btw, any movie samples you hear are a product of your overactive imagination]

 

Era Notte dynamic range stats

----------------------------------------------------------------------------------------------
 DR		Peak		RMS		Filename
----------------------------------------------------------------------------------------------

 DR11		over		-12.26 dB 	invocazione.wav
 DR13		over		-14.35 dB 	fessa.wav
 DR1		over		-6.60 dB 	casolare.wav
 DR10		-3.09 dB 	-14.57 dB 	sorellina.wav
 DR8		-1.56 dB 	-11.73 dB 	foresta.wav 
 DR6		over		-9.17 dB 	ipnagogica.wav 
 DR14		-0.00 dB 	-16.16 dB 	costellazione.wav 
 DR10		over		-10.48 dB 	immolazione.wav 
 DR9		-3.92 dB 	-15.62 dB 	ritardato.wav 
 DR9		over		-11.78 dB 	abisso.wav 
 DR11		-2.88 dB 	-14.48 dB 	camere.wav
 DR11		-4.67 dB 	-18.08 dB 	pezzente.wav
 DR11		over		-11.75 dB 	benedizione.wav
----------------------------------------------------------------------------------------------

 Number of files:	13
 Official DR value:	DR10

==============================================================================================

 

Legal crap

We are releasing these recordings under a Creative Commons Attribution-ShareAlike license. You're free to post these files on P2P, usenet, your homepage, etc. All that I ask is that you credit me  (with the name Rural Citizens Band), and leave the ID3 tags as is. Please do not change them in any way, as this is a major way I credit myself for the work.

Also, if you use these songs for animations, or whatever, please email me, I'd love to see your work! Feel free to send any other comments, suggestions, etc!

 

Creative Commons License
   This work is licensed under a Creative Commons Attribution-Share Alike 2.5 License.

 

back to the top
back to the index
send comments