© 2016 Ratan X Productions |  Current Time:  |  Site Updated: Tue. 13 September 2016  |  Eh?: Arrow pointing east

La Teodicea di Odio (recordings from Sep 2011 — November 2012)

The second straight album of Italian language inspired titles! And a third is coming soon…

La Teodicea di Odio is Italian for "the theodicy of hate". It has no real meaning and is not a commentary on theodicy or anything religious. It was simply a group of words that sounded interesting together.

The album cover is the Paulding Light phenomenon. Photo courtesy of wikipedia article and taken by Flivver 99. The original color image was the original cover for the Starlight on the Skyline album, but was saved until now.

 

La Teodicea di Odio
back cover
 

pescatore (2:52)
cigni (4:21)
rosso (4:17)
macchia (3:46)
radiofaro (4:30)
numeri (3:30)
sudore (6:49)
sterco (1:23)
litorale (3:41)
inondare (7:13) [explicit]
umido (4:38)
ballando (3:58) [explicit]
spalmare (9:19)
total: 60:13 

 

[mp3]
[mp3]
[mp3]
[mp3]
[mp3]
[mp3]
[mp3]
[mp3]
[mp3]
[mp3]
[mp3]
[mp3]
[mp3]

 

[flac]
[flac]
[flac]
[flac]
[flac]
[flac]
[flac]
[flac]
[flac]
[flac]
[flac]
[flac]
[flac]

Released: November 4th, 2012
catalogue number: OSC006RCB006LP60:13
Look at the album artwork
Subscribe to podcast for easy mp3 downloads

samples

pescatore — contains a sample of Harbour Ambience downloaded from usenet


cigni — contains a sample of Traffic Background and Poultry Auction downloaded from usenet


rosso — contains a sample of Unidentified Italian Church downloaded from usenet


macchia — contains a sample of A├žude do Parente (Underwater # 2) by Luis Antero


radiofaro — contains a modified sample of The Electronic Swamp and an old Civil Defense record, both downloaded from usenet.


numeri — contains a sample of an unknown numbers stations, downloaded from the internet.


sterco — is made up entirely of various manipulated radio noises of unknown origin


inondare — contains text from wet spots by Jack Stratton


spalmare — contains text from the wikipedia article on the Badajoz UFO incident.

 

La Teodicea di Odio dynamic range stats

----------------------------------------------------------------------------------------------
 DR		Peak		RMS		Filename
----------------------------------------------------------------------------------------------

 DR8		over		-10.40 dB 	pescatore.wav 
 DR13		-9.65 dB 	-23.75 dB 	cigni.wav
 DR11		-7.60 dB 	-20.05 dB 	rosso.wav  
 DR11		-2.04 dB 	-16.42 dB 	macchia.wav 
 DR8		over		-11.34 dB 	radiofaro.wav
 DR11		-13.87 dB 	-26.64 dB 	numeri.wav
 DR2		over		-4.77 dB 	sudore.wav
 DR9		-0.02 dB 	-11.17 dB 	sterco.wav
 DR11		-5.68 dB 	-17.39 dB 	litorale.wav
 DR1		over		-2.14 dB 	inondare.wav
 DR2		over		-5.29 dB 	umido.wav
 DR10		-4.58 dB 	-18.11 dB 	ballando.wav
 DR5		over		-6.58 dB 	spalmare.wav
----------------------------------------------------------------------------------------------

 Number of files:	13
 Official DR value:	DR8

==============================================================================================

 

Legal crap

We are releasing these recordings under a Creative Commons Attribution-ShareAlike license. You're free to post these files on P2P, usenet, your homepage, etc. All that I ask is that you credit me  (with the name Rural Citizens Band), and leave the ID3 tags as is. Please do not change them in any way, as this is a major way I credit myself for the work.

Also, if you use these songs for animations, or whatever, please email me, I'd love to see your work! Feel free to send any other comments, suggestions, etc!

 

Creative Commons License
   This work is licensed under a Creative Commons Attribution-Share Alike 2.5 License.

 

back to the top
back to the index
send comments