© 2016 Ratan X Productions |  Current Time:  |  Site Updated: Tue. 13 September 2016  |  Eh?: The observation car

Paesaggio da Sogno (recordings from November 2012 — December 2012)

The third straight album of Italian language inspired titles! The next album will have Spanish titles.

Paesaggio da Sogno is Italian for "dream landscape" which seems to be a fitting name for a Rural Citizens Band album. The cover is a collage of Landscape Tree by article 27 & 20070603_1826 by daleexpress. As always, thanks to the original photographers and everybody who releases their work under a Creative Commons license.

At little over a month (I only released this at Christmas, the files have been on the server a couple of weeks now!) it is my quickest turnaround. I decided to go back and rework a few previously released tracks, along with releasing some songs I've had in the queue for a few years now, but could never get right. I think only three of these tracks are actually new, as in made in the past month. Look proud!

 

Paesaggio da Sogno
back cover
 

lupo (5:11)
sogno (3:34)
inverno (4:18)
proiettili (5:10)
annata (5:44)
eroe (5:24) [explicit]
turbina (4:11) [explicit]
lesbiche (8:40)
moneta (3:45)
vicario (5:12)
calcestruzzo (4:27) [explicit]
neve II (2:14)
tenebre (4:57) [explicit]
total time 62:43

 

[mp3]
[mp3]
[mp3]
[mp3]
[mp3]
[mp3]
[mp3]
[mp3]
[mp3]
[mp3]
[mp3]
[mp3]
[mp3]

 

[flac]
[flac]
[flac]
[flac]
[flac]
[flac]
[flac]
[flac]
[flac]
[flac]
[flac]
[flac]
[flac]

Released: Christmas 2012
catalogue number: OSC007RCB007LP62:43
Look at the album artwork
Subscribe to podcast for easy mp3 downloads

samples

eroe — contains a sample of "light rain on trees undergrowth" downloaded from usenet. Also contains samples of Antique Lens and Sister Chan, along with high doses of murderous anger courtesy of Ratan's mind and the Cepstral Linda voice.

turbinia — contains a sample of Casey Kasem's famous meltdown

moneta — contains samples of a drunk asshole and the text from spam messages feed through a Japanese text to speech engine.

neve II — contains a sample of a Department of Civil Defense PSA and melting ice.

tenebre — contains samples of Night ambience with nearby stream and Pavement Running, both downloaded from usenet.

 

Paesaggio da Sogno dynamic range stats

----------------------------------------------------------------------------------------------
 DR		Peak		RMS		Filename
----------------------------------------------------------------------------------------------

 DR9		over		-12.42 dB 	lupo.wav 
 DR5		over		-7.30 dB 	sogno.wav
 DR9		-0.44 dB 	-11.76 dB 	inverno.wav
 DR16		-0.06 dB 	-20.27 dB 	proiettili.wav
 DR7		over		-9.12 dB 	annata.wav
 DR9		-0.06 dB 	-11.75 dB 	eroe.wav
 DR11		-4.77 dB 	-17.03 dB 	turbina.wav 
 DR9		-0.24 dB 	-11.69 dB 	lesbiche.wav 
 DR11		-5.51 dB 	-18.22 dB 	moneta.wav 
 DR11		-4.28 dB 	-16.83 dB 	vicario.wav
 DR12		-1.12 dB 	-17.60 dB 	calcestruzzo.wav
 DR11		over		-12.19 dB 	neveII.wav
 DR8		over		-9.83 dB 	tenebre.wav
----------------------------------------------------------------------------------------------

 Number of files:	13
 Official DR value:	DR10

==============================================================================================

 

Legal crap

We are releasing these recordings under a Creative Commons Attribution-ShareAlike license. You're free to post these files on P2P, usenet, your homepage, etc. All that I ask is that you credit me  (with the name Rural Citizens Band), and leave the ID3 tags as is. Please do not change them in any way, as this is a major way I credit myself for the work.

Also, if you use these songs for animations, or whatever, please email me, I'd love to see your work! Feel free to send any other comments, suggestions, etc!

 

Creative Commons License
   This work is licensed under a Creative Commons Attribution-Share Alike 2.5 License.

 

back to the top
back to the index
send comments