© 2016 Ratan X Productions |  Current Time:  |  Site Updated: Tue. 13 September 2016  |  Eh?: Great active land

astrodrones (Recorded 15 March & 24 June — 11 July 2014)

Back to the drone! I told you I wasn't through with this genre yet.

 

astrodrones
back cover
 

lunardrone (22:08)
venusdrone (24:32)
ionospheredrone (23:39)
lunardrone reprise (9:28)
total time: 79:46

 

[flac]
[flac]
[flac]
[flac]

Released: 13 July 2014
catalogue number: OSC019RCB015LP79:46
Click to see album artwork

samples

lunardrone — contains samples of Residential Air Distant Traffic by jakobthiesen and Space Wind 02 by Prosser

venusdrone — contains samples of oh_yeah and moan by AmyG and orgasm and breathing and oh yeah by epanody.

ionospheredrone — contains samples of Space Wind 02 by Prosser, Space Ambience by Sonicfreak, shtwv minid muezz hiis beep and radio t2 LW static by ERH, hackeysacklarry by NoiseCollector and over a dozen different shortwave transmissions in English, French, Spanish, Portuguese, Russian, Greek, Korean, Chinese, Japanese, and Arabic.

 

Astrodrones dynamic range stats

----------------------------------------------------------------------------------------------
 DR		Peak		RMS		Filename
----------------------------------------------------------------------------------------------

 DR12		-10.90 dB 	-25.55 dB 	lunardrone.wav
 DR11		-9.30 dB 	-24.10 dB 	venusdrone.wav
 DR11		-4.19 dB 	-19.23 dB 	ionospheredrone.wav
 DR11		-7.74 dB 	-23.18 dB 	lunardrone reprise.wav
----------------------------------------------------------------------------------------------

 Number of files:	4
 Official DR value:	DR11

==============================================================================================

 

Legal crap

We are releasing these recordings under a Creative Commons Attribution-ShareAlike license. You're free to post these files on P2P, usenet, your homepage, etc. All that I ask is that you credit me  (with the name Rural Citizens Band), and leave the ID3 tags as is. Please do not change them in any way, as this is a major way I credit myself for the work.

Also, if you use these songs for animations, or whatever, please email me, I'd love to see your work! Feel free to send any other comments, suggestions, etc!

 

Creative Commons License
astrodrones by Rural Citizens Band is licensed under a Creative Commons Attribution-ShareAlike 3.0 Unported License.

 

back to the top
back to the index
send comments